Direct Download Massive.Boobs.2.XXX.DVDRiP.x264.PORNOLATiON torrent

download torrent
Click to this video!
Size: 1.3 GB
Downloaded: 43
Hits: 406


Video
ID : 1
Format : AVC
Format/Info : Advanced Video Codec
Format profile : [email protected]
Format settings, CABAC : Yes
Format settings, ReFrames : 5 frames
Codec ID : avc1
Codec ID/Info : Advanced Video Coding
Duration : 2h 8mn
Bit rate : 1 338 Kbps
Width : 720 pixels
Height : 406 pixels
Display aspect ratio : 16:9
Frame rate mode : Constant
Frame rate : 29.970 fps
Color space : YUV
Chroma subsampling : 4:2:0
Bit depth : 8 bits
Scan type : Progressive
Bits/(Pixel*Frame) : 0.153
Stream size : 1.20 GiB (89%)
Writing library : x264 core 148 r2692 64f4e24
Encoding settings : cabac=1 / ref=5 / deblock=1:0:0 / analyse=0x3:0x113 / me=umh / subme=8 / psy=1 / psy_rd=1.00:0.00 / mixed_ref=1 / me_range=16 / chroma_me=1 / trellis=1 / 8x8dct=1 / cqm=0 / deadzone=21,11 / fast_pskip=0 / chroma_qp_offset=-2 / threads=13 / lookahead_threads=2 / sliced_threads=0 / nr=0 / decimate=1 / interlaced=0 / bluray_compat=0 / constrained_intra=0 / bframes=3 / b_pyramid=2 / b_adapt=2 / b_bias=0 / direct=3 / weightb=1 / open_gop=0 / weightp=2 / keyint=300 / keyint_min=29 / scenecut=40 / intra_refresh=0 / rc_lookahead=50 / rc=crf / mbtree=1 / crf=20.0 / qcomp=0.60 / qpmin=0 / qpmax=69 / qpstep=4 / ip_ratio=1.40 / aq=1:1.00
Audio
ID : 2
Format : AAC
Format/Info : Advanced Audio Codec
Format profile : LC
Codec ID : 40
Duration : 2h 8mn
Bit rate mode : Variable
Bit rate : 152 Kbps
Maximum bit rate : 188 Kbps
Channel(s) : 2 channels
Channel positions : Front: L R
Sampling rate : 48.0 KHz
Compression mode : Lossy
Delay relative to video : -2s 2ms
Stream size : 139 MiB (10%)


Related Torrents
Torrent Name AGE FILES SIZE

Date: 11/01/17 02:03 in : XXX

117 days 1

Date: 11/01/17 01:59 in : XXX

117 days 1 1.1 GB

Date: 11/01/17 01:53 in : XXX

117 days 1 2.5 GB

Date: 11/01/17 01:49 in : XXX

117 days 1 1.3 GB

Date: 11/01/17 01:41 in : XXX

117 days 1 4.4 GB

Date: 11/01/17 01:31 in : XXX

117 days 2 1.5 GB

Date: 11/01/17 01:28 in : XXX

117 days 1 3.5 GB

Date: 11/01/17 01:24 in : XXX

117 days 1 1.8 GB

Date: 11/01/17 01:24 in : XXX

117 days 5 858.9 MB

Date: 11/01/17 01:23 in : XXX

117 days 1 1.6 GB

Date: 11/01/17 01:11 in : XXX

117 days 4 1 GB

Date: 11/01/17 00:51 in : XXX

117 days 1 952.7 MB



Online porn video at mobile phone


sex torrentshentai porn movies torrentebony porn mp4 videossex torrent filesexy pics torrenthard core sex torrentdownload milf porn videosporno torrentsfreebigassporn videodownload bbw porn moviesfree lesbian sex movies downloadfree mlf porn movies1080 gay pornstrapon cum torrentredhead torrentfree download milf porndownload hardcore sex movietanner mayes torrenthd porn videos torrent downloadgay xxx download freehardcore sex movies free downloadjenna haze torrentsamateur porn torrentevasive angels torrenthot sex torrent1080p porn torrentsfree gay mp4 downloadhardcore purngina gerson pissannette haven high school memoriesteen porn movies downloadsex orgy torrentdownload free hd gay pornyoung porn torrentdownload free hardcore porn videosbareback torrentfree download of hardcore sex videossex orgy torrentspace pirate sara torrentasian poernpornstar punishment diamond foxxxsex videos torrent downloaddownload free ebony xxx videosgay porn videos download freeporn on utorrentproxy paige torrentdownload free hardcore porn videobrazzers torrentsfree teen porn mp4grazielly fellinifree download lesbian sex moviesex orgy torrentcreampie torrentsclara ravens homeward boundretro porn torrentmilfs torrentvintage porn torrentsiporn gaydownload free lesbian porn movieteen porn free mp4 downloadgmilf pornitalian shemale torrentebony teens torrentlesbian movies torrentsex video torrent filefree download sex gay videodownload mp4 gay pornatelier kaguya core mix collectionbrazzers milf torrentbrazzers hardcore torrentsex orgy torrenthentai dollhousesnoop doggystyle torrentnadine jansen torrentsnow white xxx torrentfull hd gay porn freedesi clips torrentaffect3d torrentthreesomes torrentamateur sex torrentslesbian sex video download free