Direct Download Gyno.X.15.07.12.Thelma.Gyno.Exam.XXX.720p.WMV.YAPG torrent

download torrent
Click to this video!
Size: 1.1 GB
Downloaded: 79
Hits: 1096


Video
ID : 1
Format : VC-1
Format profile : [email protected]
Codec ID : WMV3
Codec ID/Info : Windows Media Video 9
Codec ID/Hint : WMV3
Description of the codec : Windows Media Video 9 - Professional
Duration : 41mn 30s
Bit rate mode : Variable
Bit rate : 3 800 Kbps
Width : 1 280 pixels
Height : 720 pixels
Display aspect ratio : 16:9
Frame rate : 25.000 fps
Bit depth : 8 bits
Scan type : Progressive
Compression mode : Lossy
Bits/(Pixel*Frame) : 0.165
Stream size : 1.10 GiB (96%)
Language : Czech
Audio
ID : 2
Format : WMA
Format version : Version 2
Codec ID : 161
Codec ID/Info : Windows Media Audio
Description of the codec : Windows Media Audio 9.2 - 128 kbps, 48 kHz, stereo 1-pass CBR
Duration : 41mn 29s
Bit rate mode : Constant
Bit rate : 128 Kbps
Channel(s) : 2 channels
Sampling rate : 48.0 KHz
Bit depth : 16 bits
Stream size : 38.0 MiB (3%)
Language : Czech


Related Torrents
Torrent Name AGE FILES SIZE

Date: 05/24/18 01:05 in : XXX

11 sec 1

Date: 05/24/18 00:58 in : XXX

6 min 1

Date: 05/24/18 00:57 in : XXX

7 min 1

Date: 05/24/18 00:55 in : XXX

10 min 1

Date: 05/24/18 00:53 in : XXX

11 min 1

Date: 05/24/18 00:52 in : XXX

12 min 1

Date: 05/24/18 00:50 in : XXX

14 min 1

Date: 05/24/18 00:49 in : XXX

15 min 1

Date: 05/24/18 00:48 in : XXX

17 min 1

Date: 05/24/18 00:46 in : XXX

18 min 1

Date: 05/24/18 00:46 in : XXX

18 min 1

Date: 05/24/18 00:46 in : XXX

19 min 1



Online porn video at mobile phone


hidden cam torrentevasive angels torrenttorrent asian pornsex torrent searchdownload free teen xxxjynx maze st valentines day assacrefuck torrentteen porn moveedownload free hardcore porn clipsblack gay videos free downloadbrazzers free movie downloadbest gay torrent sitemp4 free porn movies downloadshemale torrentballbusting torrentsfree download m2m sexgay xxx video free downloadfree japanese porn comicsbbw lesbian torrentcorbin fisher bisexual videosfull porn movies torrentlesbian orgy torrenthardcore sex movies downloadxxx teen download freedownload xxx ebony videosporn xxx torrentsnew threesome porn videosxxx video torrentbrazzers hardcore torrentxxx teen video free downloadfree download latin pornhard sex movie downloadrealitykings siteripblack booty torrentsgay sex brazzershd gay porn onlinejenine porn starxxx monvadult torrents torrentadult xxx torrentssex videos download torrentdownload free classic porngay xxx movies free downloadxxx monvmy little princess ellie idolporn video torrents3d sex torrentdownload free gay porn clipsfree xxx porn comicsxxx video free download torrentlesbian porn movie downloadutorrent xxx moviefemdom porn torrentbootytorrentlesbian squirt torrenthot sex movies torrentpornolationanal xxx torrentatelier kaguya core mix collectionlatinafatassanastasia vanderbust maidblack lesbian torrentblack porn torrentsex movies utorrentsexy videos torrentcomic xxx downloadjav lesbian torrentssecret diary of a shemaleplump princess videoshort sex videos torrentporn clip torrentsjayden jaymes torrentcurvy girls torrentreality porn torrentpuma swede torrentgay black porn torrentatk hairy torrentstori black torrentsmilf full movie downloadlesbians torrentsex porn movies torrentfree milf video downloadgay porn xxx downloadhitomi tanaka torrentsamateur porn torrentsdigital desire torrentlily carter torrentvermillion kittentorrent download brazzersinterracial mpegs